Azhar (2016) 720p mHD DvDRip x264 AAC 5.1 ESub -DDR - Exclusive

seeders: 25
leechers: 10
updated:
Added by SaM456.59K in Movies > Bollywood
Torrent verified. Downloaded 667 times.

DownloadFast Safe Anonymous
movies, software, shows...
Summary:

Indian biographical sports film directed by Tony D'Souza based on the life of the former Indian international cricketer, Mohammad Azharuddin. It will star emraan hashmi in the lead role alongside Prachi Desai , Nargis Fakhri and Huma Qureshi

Written by Pulse420120
Available in versions: 1080p720pDVDDVDRip
Azhar (2016) 720p mHD DvDRip x264 AAC 5.1 ESub -DDR - Exclusive (Size: 1.47 GB)
  Azhar (2016) 720p mHD DvDRip x264 AAC 5.1 ESub -DDR - Exclusive.mkv 1.46 GB
  (sample) Azhar (2016) 720p mHD DvDRip x264 AAC 5.1 ESub -DDR - Exclusive.mkv 10.44 MB
  A DDR Exclusive Release.txt 28 bytes

Description

image

- BollywooD MoviE -
**- AZHAR -**
- 2016 -
** 720p mHD DvDrip / x264 / AAC 5.1 **
English subtitle(s)



image

~* SCREENSHOTS *~

image image image image image image image image image image image image image image image

[ Specs ]
General
Source = DVD9 @ DDR

Format : Matroska
File size : 1.46 GiB
Duration : 2h 11mn
Overall bit rate : 1 592 Kbps
Encoded date : UTC 2016-06-27 19:53:45

Video
Format : AVC
Format profile : [email protected]
Format settings, CABAC : Yes
Format settings, ReFrames : 4 frames
Duration : 2h 11mn
Bit rate : 1 398 Kbps
Width : 1 280 pixels
Height : 544 pixels
Display aspect ratio : 2.35:1
Frame rate mode : Constant
Frame rate : 23.976 (24000/1001) fps
Bit depth : 8 bits
Scan type : Progressive
Bits/(Pixel*Frame) : 0.084
Stream size : 1.28 GiB (88%)
Language : English
Default : Yes
Forced : No
Matrix coefficients : BT.709

Audio
Format : AAC
Format/Info : Advanced Audio Codec
Format profile : LC
Duration : 2h 11mn
Bit rate : 192 Kbps
Channel(s) : 6 channels
Channel positions : Front: L C R, Side: L R, LFE
Sampling rate : 48.0 KHz
Frame rate : 46.875 fps (1024 spf)
Compression mode : Lossy
Stream size : 180 MiB (12%)
Language : Hindi
Default : Yes
Forced : No
Chapters: YES
Sample: YES - included

A DDR 8th Anniversary Exclusive Release...!


Related Torrents

torrent name size files age seed leech

Sharing Widget


Download torrent
1.47 GB
seeders:25
leechers:10
Azhar (2016) 720p mHD DvDRip x264 AAC 5.1 ESub -DDR - Exclusive



To share this torrent use the code below and insert it into comments, status messages, forum posts or your signature.

Torrent: Azhar (2016) 720p mHD DvDRip...AC 5.1 ESub -DDR - Exclusive

Trackers

tracker name
udp://tracker.openbittorrent.com:80/announce
udp://tracker.coppersurfer.tk:6969/announce
udp://tracker.leechers-paradise.org:6969/announce
udp://eddie4.nl:6969/announce
udp://p4p.arenabg.com:1337/announce
udp://tracker.aletorrenty.pl:2710/announce
udp://9.rarbg.to:2710/announce
udp://tracker.opentrackr.org:1337/announce
udp://tracker.piratepublic.com:1337/announce
udp://tracker.sktorrent.net:6969/announce
ĀµTorrent compatible trackers list

Locations

name
KickassTorrents
ExtraTorrent
Torrent hash: B81BA9938DF62E96319E703AE46800DBCF936626

All Comments

audio
9/10
video
9/10
please, leave only comments related to that torrent
Sign In

audio: 9video: 9
nice print and movie is not that good.
audio: 9video: 8
It's good, thanks for uploading.

Last edited by SuperSonu222, 2 weeks ago

that was very fast, thanks mr. Sam.
audio: 10video: 10
Thanks
You deliver HIT.

User Opinions

Report a bug Open chat