The Legend of Tarzan 2016 HDTS XviD-VAiN

seeders: 62
leechers: 39
updated:
Added by FireofSword93.47K in Movies
Torrent verified. Downloaded 1,399 times.

DownloadFast Safe Anonymous
movies, software, shows...
  • add The Legend of Tarzan to bookmarks
  • Release date: 01 July 2016
  • Writers: Adam Cozad (screenplay), Craig Brewer (screenplay), Craig Brewer (story by), Adam Cozad (story by), Edgar Rice Burroughs (Based on the'Tarzan' stories created by)
  • Director: David Yates
  • Language: English
Summary:

It has been years since the man once known as Tarzan (Skarsgård) left the jungles of Africa behind for a gentrified life as John Clayton III, Lord Greystoke, with his beloved wife, Jane (Robbie) at his side. Now, he has been invited back to the Congo to serve as a trade emissary of Parliament, unaware that he is a pawn in a deadly convergence of greed and revenge, masterminded by the Belgian, Captain Leon Rom (Waltz). But those behind the murderous plot have no idea what they are about to unleash.

Written by Anette14151.2K Last edited by zoone, 6 days ago
Available in versions: HDTCx264x265ScreenerTeleSyncCam
The Legend of Tarzan 2016 HDTS XviD-VAiN (Size: 1.48 GB)
  The.Legend.of.Tarzan.2016.HDTS.XviD-VAiN.avi 1.47 GB
  VAIN.nfo 2.92 KB
  sample.avi 12.85 MB

Description

The Legend of Tarzan 2016 HDTS XviD-VAiN


image

P R E S E N T S . . . .

The.Legend.of.Tarzan.2016.HDTS.XviD-VAiN

iMDB........: http://www.imdb.com/title/tt0918940/



T E C H N i C A L . i N F O . . .

Basic Information
Format : AVI
Format/Info : Audio Video Interleave
File size : 1.47 GiB
Duration : 1h 45mn
Overall bit rate : 1 990 Kbps
Writing application : VirtualDubMod 1.5.10.2 (build 2540/release)
Writing library : VirtualDubMod build 2540/release

Video
ID : 0
Format : MPEG-4 Visual
Format profile : Advanced [email protected]
Format settings, BVOP : 2
Format settings, QPel : No
Format settings, GMC : No warppoints
Format settings, Matrix : Default (H.263)
Muxing mode : Packed bitstream
Codec ID : XVID
Codec ID/Hint : XviD
Duration : 1h 45mn
Bit rate : 1 786 Kbps
Width : 720 pixels
Height : 304 pixels
Display aspect ratio : 2.35:1
Frame rate : 30.000 fps
Color space : YUV
Chroma subsampling : 4:2:0
Bit depth : 8 bits
Scan type : Progressive
Compression mode : Lossy
Bits/(Pixel*Frame) : 0.272
Stream size : 1.32 GiB (90%)
Writing library : XviD 64

Audio
ID : 1
Format : MPEG Audio
Format version : Version 1
Format profile : Layer 3
Mode : Joint stereo
Mode extension : MS Stereo
Codec ID : 55
Codec ID/Hint : MP3
Duration : 1h 45mn
Bit rate mode : Constant
Bit rate : 192 Kbps
Channel(s) : 2 channels
Sampling rate : 48.0 KHz
Compression mode : Lossy
Stream size : 145 MiB (10%)
Alignment : Aligned on interleaves
Interleave, duration : 33 ms (1.00 video frame)
Interleave, preload duratio : 504 ms






E N C O D E R S . N O T E S . . .

SOURCE......: ViDEO...X264-CPG
............: AUDiO...X264-CPG
SAMPLE......: Yippers
ADDED NOTE..: Love Me.... Love You...
Took sum ol' poo-shine and polished this turd....



S C R E E N . S H O T S . . .

image image image image image

Related Torrents

torrent name size files age seed leech

Sharing Widget


Download torrent
1.48 GB
seeders:63
leechers:46
The Legend of Tarzan 2016 HDTS XviD-VAiN



To share this torrent use the code below and insert it into comments, status messages, forum posts or your signature.

Torrent: The Legend of Tarzan 2016 HDTS XviD-VAiN

Trackers

tracker name
udp://9.rarbg.me:2710/announce
udp://tracker.openbittorrent.com:80/announce
udp://tracker.coppersurfer.tk:6969/announce
udp://tracker.trackerfix.com:80/announce
udp://p4p.arenabg.com:1337/announce
udp://tracker.sktorrent.net:6969/announce
udp://explodie.org:6969/announce
udp://9.rarbg.to:2710/announce
udp://tracker.opentrackr.org:1337/announce
udp://tracker.piratepublic.com:1337/announce
µTorrent compatible trackers list

Locations

name
KickassTorrents
ExtraTorrent
Torrent hash: 029E703D49816550B9E10A66133BA8F4EA361CCA

All Comments

audio
0/10
video
0/10
please, leave only comments related to that torrent
Sign In


User Opinions

Report a bug Open chat