The Legend of Tarzan 2016 Hindi CAMRip X264 AAC PRiME

seeders: 146
leechers: 25
updated:
Added by Simmoncelli122.82K in Movies > Dubbed Movies
Torrent verified. Downloaded 9,009 times.

DownloadFast Safe Anonymous
movies, software, shows...
  • add The Legend of Tarzan to bookmarks
  • Release date: 01 July 2016
  • Writers: Adam Cozad (screenplay), Craig Brewer (screenplay), Craig Brewer (story by), Adam Cozad (story by), Edgar Rice Burroughs (Based on the'Tarzan' stories created by)
  • Director: David Yates
  • Language: Hindi
Summary:

It has been years since the man once known as Tarzan (Skarsgård) left the jungles of Africa behind for a gentrified life as John Clayton III, Lord Greystoke, with his beloved wife, Jane (Robbie) at his side. Now, he has been invited back to the Congo to serve as a trade emissary of Parliament, unaware that he is a pawn in a deadly convergence of greed and revenge, masterminded by the Belgian, Captain Leon Rom (Waltz). But those behind the murderous plot have no idea what they are about to unleash.

Written by Anette14151.2K Last edited by zoone, 6 days ago
Available in versions: HDTCx264x265ScreenerTeleSyncCam
The Legend of Tarzan 2016 Hindi CAMRip X264 AAC PRiME (Size: 708.88 MB)
  Read More!!!.txt 73 bytes
  sample.mp4 9.04 MB
  The.Legend.of.Tarzan.2016.Hindi.CAMRip.X264.AAC.PRiME.mp4 699.84 MB
  Torrent Downloaded From ExtraTorrent.cc.txt 414 bytes

Description


The.Legend.of.Tarzan.2016.Hindi.CAMRip.X264.AAC.PRiME

image

image

Format : MPEG-4
Format profile : Base Media
Codec ID : isom (isom/avc1)
File size : 700 MiB
Duration : 1h 40mn
Overall bit rate mode : Variable
Overall bit rate : 969 Kbps

Video
ID : 1
Format : AVC
Format/Info : Advanced Video Codec
Format profile : [email protected]
Format settings, CABAC : Yes
Format settings, ReFrames : 5 frames
Codec ID : avc1
Codec ID/Info : Advanced Video Coding
Duration : 1h 40mn
Bit rate : 902 Kbps
Maximum bit rate : 3 719 Kbps
Width : 712 pixels
Height : 376 pixels
Display aspect ratio : 1.894
Frame rate mode : Constant
Frame rate : 23.976 (24000/1001) fps
Color space : YUV
Chroma subsampling : 4:2:0
Bit depth : 8 bits
Scan type : Progressive
Bits/(Pixel*Frame) : 0.141
Stream size : 651 MiB (93%)

Audio
ID : 2
Format : AAC
Format/Info : Advanced Audio Codec
Format profile : HE-AAC / LC
Codec ID : 40
Duration : 1h 40mn
Bit rate mode : Variable
Bit rate : 64.0 Kbps
Maximum bit rate : 73.1 Kbps
Channel(s) : 2 channels
Channel positions : Front: L R
Sampling rate : 48.0 KHz / 24.0 KHz
Frame rate : 23.438 fps (1024 spf)
Compression mode : Lossy
Stream size : 46.2 MiB (7%)
Language : Hindi
Source : A Friend (Thanks)
Source : A Friend (Thanks)


image

Click Image To View Full Size

image image image image image image image image image image

Related Torrents

torrent name size files age seed leech

Sharing Widget


Download torrent
708.88 MB
seeders:186
leechers:20
The Legend of Tarzan 2016 Hindi CAMRip X264 AAC PRiME



To share this torrent use the code below and insert it into comments, status messages, forum posts or your signature.

Torrent: The Legend of Tarzan 2016 Hindi CAMRip X264 AAC PRiME

Trackers

tracker name
udp://tracker.openbittorrent.com:80/announce
udp://tracker.coppersurfer.tk:6969/announce
udp://9.rarbg.me:2710/announce
udp://tracker.leechers-paradise.org:6969/announce
udp://eddie4.nl:6969/announce
udp://p4p.arenabg.com:1337/announce
udp://torrent.gresille.org:80/announce
udp://tracker.opentrackr.org:1337/announce
udp://tracker.piratepublic.com:1337/announce
udp://tracker.sktorrent.net:6969/announce
µTorrent compatible trackers list

Locations

name
KickassTorrents
Torrent hash: 471A9ABE09496B0BA04EB23A1A1A6983AE45F96F

All Comments

audio
5/10
video
4/10
please, leave only comments related to that torrent
Sign In

audio: 5video: 5
Since this is an early upload...the work is really good.
But will wait for a better print.
Thanks
Good Work! Video 3, Audio 5
audio: 2video: 3
this is not very watchable by any standard
audio: 6video: 3
wait for a better one
Show More All

User Opinions

-Hitman-48.66K, scotty11051950, sazerxx1204, feluda951, pipeace320, hindu286, arno0814260, iamtushar197, chandu6646, cartnem26 ... And 10 more
Waizman174, wishabhi123, vicky06198440, suckabowl28, Faisalii6, Lissy730, tauhid1230
Report a bug Open chat