The Purge 2013 WEBRip R6 XViD AC3 - W00D

seeders: 8
leechers: 2
updated:
Added by Silmarillion801.51K in Movies
Torrent verified. Downloaded 532 times.

DownloadFast Safe Anonymous
movies, software, shows...
Summary:

In the future, a wealthy family is held hostage for harboring the target of a murderous syndicate during the Purge, a 12-hour period in which any and all crime is legalized.

Written by MoonChild20.48K
The Purge 2013 WEBRip R6 XViD AC3 - W00D (Size: 709.4 MB)
  sample.avi 15.21 MB
  The.Purge.2013.WEBRip.R6.XViD.AC3 - W00D.avi 694.18 MB
  Torrent downloaded from extratorrent.com.txt 353 bytes

Description

http://img23.binimage.org/6d/54/61/thepurgeposter.jpg




http://www.imdb.com/title/tt2184339/


A family is held hostage for harboring the target of a murderous syndicate during the Purge, a 12-hour period in which any and all crime is legalized.



Director:
James DeMonaco

Writer:
James DeMonaco

Stars:
Ethan Hawke, Lena Headey, Max Burkholder

Genres:
Horror | Sci-Fi | Thriller






General Information
Sample Included......: Yes
Source...............: RMVB Chinese Low Bitrate
Container............: AVi




Video
ID : 0
Format : MPEG-4 Visual
Format profile : Advanced [email protected]
Format settings, BVOP : 2
Format settings, QPel : No
Format settings, GMC : No warppoints
Format settings, Matrix : Default (H.263)
Codec ID : XVID
Codec ID/Hint : XviD
Duration : 1h 25mn
Bit rate : 1 002 Kbps
Width : 704 pixels
Height : 304 pixels
Display aspect ratio : 2.35:1
Frame rate : 23.976 fps
Color space : YUV
Chroma subsampling : 4:2:0
Bit depth : 8 bits
Scan type : Progressive
Compression mode : Lossy
Bits/(Pixel*Frame) : 0.195
Stream size : 611 MiB (88%)
Writing library : XviD 1.2.1 (UTC 2008-12-04)

Audio
ID : 1
Format : AC-3
Format/Info : Audio Coding 3
Mode extension : CM (complete main)
Format settings, Endianness : Big
Codec ID : 2000
Duration : 1h 25mn
Bit rate mode : Constant
Bit rate : 128 Kbps
Channel(s) : 2 channels
Channel positions : Front: L R
Sampling rate : 48.0 KHz
Bit depth : 16 bits
Compression mode : Lossy
Stream size : 78.1 MiB (11%)
Alignment : Aligned on interleaves
Interleave, duration : 64 ms (1.53 video frames)
Interleave, preload duration : 192 ms
Title : The Purge 2013 R6 webrip






http://img23.binimage.org/bb/28/3b/6aa7.png
http://img23.binimage.org/3f/7b/47/g8f.png
http://img23.binimage.org/61/a3/4a/msq.png
http://img23.binimage.org/90/db/3e/t9o0.png

Related Torrents

torrent name size files age seed leech

Sharing Widget


Download torrent
709.4 MB
seeders:8
leechers:2
The Purge 2013 WEBRip R6 XViD AC3 - W00D



To share this torrent use the code below and insert it into comments, status messages, forum posts or your signature.

Torrent: The Purge 2013 WEBRip R6 XViD AC3 - W00D

Trackers

tracker name
udp://tracker.openbittorrent.com:80/announce
udp://tracker.publicbt.com:80/announce
udp://tracker.istole.it:80/announce
udp://9.rarbg.com:2710/announce
udp://tracker.coppersurfer.tk:6969/announce
udp://9.rarbg.me:2710/announce
udp://glotorrents.pw:6969/announce
udp://www.h33t.com:3310/announce
udp://fr33dom.h33t.com:3310/announce
udp://ipv4.tracker.harry.lu:80/announce
µTorrent compatible trackers list

Locations

name
KickassTorrents
ThePirateBay
ExtraTorrent
Torrent hash: 9E74001CC409C5BEBE7CC0CE3BB600B335FF4FC7

Top Comments

8
beyanne402
audio: 8video: 7
a lot of disgusting anons trying to write up negative comments..
you guys aren't paying a single cent to download movies here and yet you have the guts to complain? How disrespectful.
7
anonymous
audio: 9video: 9
This is a brilliant copy everything was perfect yes it had subs but didnt effect the movie 1 bit ungrateful shower of pigs complaing
5
Species105.49K
audio: 7video: 7
quality is good for early release cam movie was intresting different there are subs but easly to ignore thank you for your share
3
AlphaFemale140
Good quality movie, both video and audio are good. Now, this is not personal, as every download is the same (you just happen to be top of the list) - this is an American movie - why the Asian hardcoded subtitles? And please, at least have the common courtesy to mention this fact. It's not too much to ask for really, is it?

All Comments

audio
7/10
video
7/10
please, leave only comments related to that torrent
Sign In

Hard Coded chinese captions.
audio: 7video: 5
Don't download this copy - there are Chinese sub-titles! Its really annoying that all these people say how "excellent" the copy is without mentioning this. Be warned!
audio: 8video: 7
good torrent bro.thanks.
audio: 10video: 10
Excellent upload! Thanks.
is this english?
Show More All

User Opinions

R.D.Winters4818, princehindu1466, sgarbimax1061, Nikolayy963, huntinglee912, malcmag874, kbtb319, Sheena80251, cwest196, mctool78 ... And 656 more
Elvenman1854, yirmidokuz1766, adola1092, Nigarachi37421055, woody881007, nickurfriend932, bojanlacic395, austin76016113, Zaitri107, henry66669 ... And 35 more
Report a bug Open chat