The Purge Anarchy 2014 1080p WEB-DL DD5 1 H264-RARBG

seeders: 8
leechers: 1
updated:
Added by z0n3212.58M in Movies
Torrent verified. Downloaded 9,560 times.

DownloadFast Safe Anonymous
movies, software, shows...
Summary:

A couple is driving home when their car breaks down just as the annual Purge commences. Meanwhile, a police sergeant goes out into the streets to get revenge on the man who killed his son, and a mother and daughter run from their home after assailants destroy it. The five people meet up as they attempt to survive the night in Los Angeles.

Written by omgkitteh9162
The Purge Anarchy 2014 1080p WEB-DL DD5 1 H264-RARBG (Size: 3.03 GB)
  rarbg.com.mp4 992.93 KB
  rarbg.com.txt 34 bytes
  The.Purge.Anarchy.2014.1080p.WEB-DL.DD5.1.H264-RARBG.mkv 3.03 GB
  The.Purge.Anarchy.2014.1080p.WEB-DL.DD5.1.H264-RARBG.nfo 2.67 KB

Description

The.Purge.Anarchy.2014.1080p.WEB-DL.DD5.1.H264-RARBG

http://imdb.com/title/tt2975578/

Screens:
image
image
image
image
image
image
image
image
image
image
image
image

Info:

[mediainfo]

Video
ID : 1
Format : AVC
Format/Info : Advanced Video Codec
Format profile : [email protected]
Format settings, CABAC : Yes
Format settings, ReFrames : 5 frames
Codec ID : V_MPEG4/ISO/AVC
Duration : 1h 43mn
Bit rate : 3 719 Kbps
Width : 1 916 pixels
Height : 796 pixels
Display aspect ratio : 2.40:1
Frame rate mode : Constant
Frame rate : 23.976 fps
Color space : YUV
Chroma subsampling : 4:2:0
Bit depth : 8 bits
Scan type : Progressive
Bits/(Pixel*Frame) : 0.102
Stream size : 2.69 GiB (89%)
Title : The.Purge.Anarchy.2014.1080p.WEB-DL.DD5.1.H264-RARBG
Language : English
Default : Yes
Forced : No
Color primaries : BT.709
Transfer characteristics : BT.709
Matrix coefficients : BT.709

Audio
ID : 2
Format : AC-3
Format/Info : Audio Coding 3
Mode extension : CM (complete main)
Format settings, Endianness : Big
Codec ID : A_AC3
Duration : 1h 43mn
Bit rate mode : Constant
Bit rate : 384 Kbps
Channel(s) : 6 channels
Channel positions : Front: L C R, Side: L R, LFE
Sampling rate : 48.0 KHz
Bit depth : 16 bits
Compression mode : Lossy
Stream size : 284 MiB (9%)
Title : The.Purge.Anarchy.2014.1080p.WEB-DL.DD5.1.H264-RARBG
Language : English
Default : Yes
Forced : No
[/mediainfo]

Notes:
Greetz to everyone :)

Related Torrents

torrent name size files age seed leech

Sharing Widget


Download torrent
3.03 GB
seeders:8
leechers:1
The Purge Anarchy 2014 1080p WEB-DL DD5 1 H264-RARBG



To share this torrent use the code below and insert it into comments, status messages, forum posts or your signature.

Torrent: The Purge Anarchy 2014 1080p WEB-DL DD5 1 H264-RARBG

Trackers

tracker name
udp://tracker.openbittorrent.com:80/announce
udp://tracker.publicbt.com:80/announce
udp://tracker.istole.it:80/announce
udp://coppersurfer.tk:6969/announce
udp://open.demonii.com:1337/announce
udp://12.rarbg.me:80/announce
udp://glotorrents.pw:6969/announce
udp://tracker4.piratux.com:6969/announce
udp://11.rarbg.me:80/announce
udp://10.rarbg.me:80/announce
ĀµTorrent compatible trackers list

Locations

name
KickassTorrents
ThePirateBay
Torrent hash: 138B6C5A5F646A00E241D836E040C9CFB221B81A

Top Comments

4
sam-rmcf200
audio: 7video: 10
clap

All Comments

audio
8/10
video
9/10
please, leave only comments related to that torrent
Sign In

audio: 7video: 8
Thanks!
audio: 10video: 10
thnks for the sharing...
audio: 10video: 9
thank you
audio: 8video: 9
thanks
RARBG- rocks!!! Seed till you bleed
Hardcoded Chinese Subs
audio: 8video: 9
Thanks
audio: 9video: 9
thanks!
Show More All

User Opinions

Deckard.Shaw328.13K, Tommy Jay6917, TX_Turtle4704, SPEC1AL3003, desert_sea1917, gorerothed1913, calocalderon1498, schimmel1335, tyfndnmz743, CrackBeatz295 ... And 202 more
lemuero14.99K, xold-childx1343, Jansen27675, alfredoivan653, junito393128
Report a bug Open chat