The Purge Anarchy 2014 720p BluRay H264 AAC-RARBG

seeders: 462
leechers: 178
updated:
Added by z0n3212.57M in Movies > Highres Movies
Torrent verified. Downloaded 7,922 times.

DownloadFast Safe Anonymous
movies, software, shows...
Summary:

A couple is driving home when their car breaks down just as the annual Purge commences. Meanwhile, a police sergeant goes out into the streets to get revenge on the man who killed his son, and a mother and daughter run from their home after assailants destroy it. The five people meet up as they attempt to survive the night in Los Angeles.

Written by omgkitteh9162
The Purge Anarchy 2014 720p BluRay H264 AAC-RARBG (Size: 1.26 GB)
  rarbg.com.mp4 992.93 KB
  rarbg.com.txt 34 bytes
  The.Purge.Anarchy.2014.720p.BluRay.H264.AAC-RARBG.mp4 1.25 GB
  The.Purge.Anarchy.2014.720p.BluRay.H264.AAC-RARBG.nfo 3.92 KB
  Subs

Description


http://rarbg.to
The.Purge.Anarchy.2014.720p.BluRay.H264.AAC-RARBG

image
Screens :

image

image

image

image

image
Mediainfo :

Video
ID : 1
Format : AVC
Format/Info : Advanced Video Codec
Format profile : [email protected]
Format settings, CABAC : Yes
Format settings, ReFrames : 4 frames
Codec ID : avc1
Codec ID/Info : Advanced Video Coding
Duration : 1h 43mn
Bit rate : 1 500 Kbps
Width : 1 280 pixels
Height : 534 pixels
Display aspect ratio : 2.40:1
Frame rate mode : Constant
Frame rate : 23.976 (23976/1000) fps
Color space : YUV
Chroma subsampling : 4:2:0
Bit depth : 8 bits
Scan type : Progressive
Bits/(Pixel*Frame) : 0.092
Stream size : 1.08 GiB (87%)
Writing library : x264 core 148 r2597M e86f3a1
Encoding settings : cabac=1 / ref=4 / deblock=1:-1:-1 / analyse=0x3:0x113 / me=umh / subme=9 / psy=1 / psy_rd=1.00:0.15 / mixed_ref=1 / me_range=24 / chroma_me=1 / trellis=2 / 8x8dct=1 / cqm=0 / deadzone=21,11 / fast_pskip=1 / chroma_qp_offset=-3 / threads=32 / lookahead_threads=4 / sliced_threads=0 / nr=0 / decimate=1 / interlaced=0 / bluray_compat=0 / constrained_intra=0 / bframes=3 / b_pyramid=2 / b_adapt=2 / b_bias=0 / direct=3 / weightb=1 / open_gop=0 / weightp=2 / keyint=250 / keyint_min=25 / scenecut=40 / intra_refresh=0 / rc_lookahead=50 / rc=2pass / mbtree=1 / bitrate=1500 / ratetol=1.0 / qcomp=0.60 / qpmin=0 / qpmax=69 / qpstep=4 / cplxblur=20.0 / qblur=0.5 / vbv_maxrate=31250 / vbv_bufsize=31250 / nal_hrd=none / filler=0 / ip_ratio=1.40 / aq=3:1.00
Encoded date : UTC 2016-06-30 13:07:51
Tagged date : UTC 2016-06-30 13:07:51

Audio
ID : 2
Format : AAC
Format/Info : Advanced Audio Codec
Format profile : LC
Codec ID : 40
Duration : 1h 43mn
Bit rate mode : Constant
Bit rate : 224 Kbps
Channel(s) : 2 channels
Channel(s)_Original : 6 channels
Channel positions : Front: L C R, Side: L R, LFE
Sampling rate : 48.0 KHz
Frame rate : 46.875 fps (1024 spf)
Compression mode : Lossy
Stream size : 166 MiB (13%)
Language : English
Default : Yes
Alternate group : 1
Encoded date : UTC 2016-06-30 13:07:51
Tagged date : UTC 2016-06-30 13:07:51



Related Torrents

torrent name size files age seed leech

Sharing Widget


Download torrent
1.26 GB
seeders:462
leechers:157
The Purge Anarchy 2014 720p BluRay H264 AAC-RARBG



To share this torrent use the code below and insert it into comments, status messages, forum posts or your signature.

Torrent: The Purge Anarchy 2014 720p BluRay H264 AAC-RARBG

Trackers

tracker name
udp://tracker.openbittorrent.com:80/announce
udp://tracker.publicbt.com:80/announce
udp://tracker.coppersurfer.tk:6969/announce
udp://9.rarbg.me:2710/announce
udp://p4p.arenabg.com:1337/announce
http://tracker.trackerfix.com/announce
udp://9.rarbg.to:2710/announce
udp://tracker.opentrackr.org:1337/announce
ĀµTorrent compatible trackers list

Locations

name
KickassTorrents
Torrent hash: 0DEA8CE4A93E6E99F155684B4172492365221A96

All Comments

audio
8/10
video
9/10
please, leave only comments related to that torrent
Sign In

audio: 10video: 10
Thank You!!
audio: 9video: 9
Great! Thank you very much.
audio: 1video: 10
Crackling audio. Video is great.
audio: 10video: 10
Thanks

User Opinions

delboy717771, gwalton73841, IDontHave12846, lamocco2388, prantik1231435, geegee701181, ehendricks1049, PGrass345, dc5bo198, akshaydivate147 ... And 49 more
DanceEmpire309
Report a bug Open chat