The Purge Anarchy (2014) 720p BluRay x264 [Dual-Audio][English BD 5.1 + Hindi BD 5.1] - Mafiaking - Team TellyTNT

seeders: 29
leechers: 12
updated:
Added by mafiaking75.18K in Movies > Highres Movies
Torrent verified. Downloaded 5,717 times.

DownloadFast Safe Anonymous
movies, software, shows...
Summary:

A couple is driving home when their car breaks down just as the annual Purge commences. Meanwhile, a police sergeant goes out into the streets to get revenge on the man who killed his son, and a mother and daughter run from their home after assailants destroy it. The five people meet up as they attempt to survive the night in Los Angeles.

Written by omgkitteh9162
The Purge Anarchy (2014) 720p BluRay x264 [Dual-Audio][English BD 5.1 + Hindi BD 5.1] - Mafiaking... (Size: 1.03 GB)
  The Purge Anarchy (2014) 720p BluRay x264 [Dual-Audio][English BD 5.1 + Hindi BD 5.1] - Mafiaking... 1.01 GB
  sample.mkv 8.71 MB
  Torrent Downloaded From ExtraTorrent.cc.txt 352 bytes
  Subs

Description

image


http://images.cinefacts.de/Purge-Anarchy-5050582977707.jpg


http://img9.uploadhouse.com/...9f004bcdf00afac92833ebdb.png





General
Unique ID : 179881874950217754355199551894482553161 (0x8753FD2B4C1C3F2389EA7E19C4CF8949)
Complete name : The Purge Anarchy (2014) 720p BluRay x264 [Dual-Audio][English BD 5.1 + Hindi BD 5.1] - Mafiaking - Team TellyTNT.mkv
Format : Matroska
Format version : Version 4 / Version 2
File size : 1.01 GiB
Duration : 1h 43mn
Overall bit rate : 1 400 Kbps
Movie name : The Purge Anarchy (2014) 720p BluRay x264 [Dual-Audio][English BD 5.1 + Hindi BD 5.1] - Mafiaking - Team TellyTNT
Encoded date : UTC 2014-10-29 17:49:25
Writing application : mkvmerge v7.0.0 ('Where We Going') 64bit built on Jun 9 2014 15:16:27
Writing library : libebml v1.3.0 + libmatroska v1.4.1


Video
ID : 1
Format : AVC
Format/Info : Advanced Video Codec
Format profile : [email protected]
Format settings, CABAC : Yes
Format settings, ReFrames : 4 frames
Codec ID : V_MPEG4/ISO/AVC
Duration : 1h 43mn
Bit rate : 950 Kbps
Width : 1 280 pixels
Height : 536 pixels
Display aspect ratio : 2.40:1
Frame rate mode : Constant
Frame rate : 23.976 fps
Color space : YUV
Chroma subsampling : 4:2:0
Bit depth : 8 bits
Scan type : Progressive
Bits/(Pixel*Frame) : 0.058
Stream size : 684 MiB (66%)
Title : Mafiaking
Language : English
Default : Yes
Forced : No


Audio #1
ID : 2
Format : AC-3
Format/Info : Audio Coding 3
Mode extension : CM (complete main)
Format settings, Endianness : Big
Codec ID : A_AC3
Duration : 1h 43mn
Bit rate mode : Constant
Bit rate : 224 Kbps
Channel(s) : 6 channels
Channel positions : Front: L C R, Side: L R, LFE
Sampling rate : 48.0 KHz
Bit depth : 16 bits
Compression mode : Lossy
Stream size : 166 MiB (16%)
Title : Mafiaking
Language : Hindi
Default : Yes
Forced : No


Audio #2
ID : 3
Format : AC-3
Format/Info : Audio Coding 3
Mode extension : CM (complete main)
Format settings, Endianness : Big
Codec ID : A_AC3
Duration : 1h 43mn
Bit rate mode : Constant
Bit rate : 224 Kbps
Channel(s) : 6 channels
Channel positions : Front: L C R, Side: L R, LFE
Sampling rate : 48.0 KHz
Bit depth : 16 bits
Compression mode : Lossy
Stream size : 166 MiB (16%)
Title : Mafiaking
Language : English
Default : No
Forced : No


SAMPLE WITH IN TORRENT




http://icons.iconarchive.com...low/256/screenshots-icon.png

image

image

image

image

image

image

image

image

Special Thanks To SnowDon For Hindi Audio.

Related Torrents

torrent name size files age seed leech

Sharing Widget


Download torrent
1.03 GB
seeders:21
leechers:11
The Purge Anarchy (2014) 720p BluRay x264 [Dual-Audio][English BD 5.1 + Hindi BD 5.1] - Mafiaking - Team TellyTNT



To share this torrent use the code below and insert it into comments, status messages, forum posts or your signature.

Torrent: The Purge Anarchy (2014) 720... - Mafiaking - Team TellyTNT

Trackers

tracker name
udp://tracker.openbittorrent.com:80/announce
udp://9.rarbg.com:2710/announce
udp://coppersurfer.tk:6969/announce
udp://open.demonii.com:1337/announce
http://tracker.aletorrenty.pl:2710/announce
http://torrent.gresille.org/announce
udp://tracker.publicbt.com:80/announce
udp://tracker.istole.it:80/announce
udp://11.rarbg.me:80/announce
http://bttracker.crunchbanglinux.org:6969/announce
ĀµTorrent compatible trackers list

Locations

name
KickassTorrents
ThePirateBay
Torrent hash: 2A9A1C649D601C4901B8D91515B9C55B6765BD4A

All Comments

audio
8/10
video
8/10
please, leave only comments related to that torrent
Sign In

audio: 10video: 10
thanks
audio: 10video: 10
Great copy. :)
audio: 8video: 8
mast hai.... :D jordar.... dono part..
audio: 8video: 8
Thanks.
audio: 10video: 10
Thanks.
audio: 9video: 9
Nice Movie and absolute copy in this size.... kudos to team.....
Show More All

User Opinions

Adwarb11.4K, Team_xRG10.14K, amiaham3434, derekanime2356, cyborg0091798, raveed1563, paragpan1503, nickz123874, pallav7306193, hussain198831 ... And 198 more
Jigarsonani121006, A3Y5390, rohit_235689355, dhruvaddc65, gnome6353, sameeer2548, Whydoyoucare48, syed5445, laughterkitty13, jackster06254 ... And 3 more
Report a bug Open chat