The Purge Election Year (2016) CAMRip x264 AAC 181MB BY TeriKasam mkv

seeders: 18
leechers: 5
updated:
Added by TeriKasam1770 in Movies
Torrent verified. Downloaded 876 times.

DownloadFast Safe Anonymous
movies, software, shows...
Summary:

Years after sparing the man who killed his son, former police sergeant Barnes has become head of security for Senator Charlie Roan, a Presidential candidate targeted for death on Purge night due to her vow to eliminate the Purge.

Written by Rocky_45122.15K Last edited by Hand_of_Doom, 2 days ago
Available in versions: 1080p720pHDRiPScreenerCam
The Purge Election Year (2016) CAMRip x264 AAC 181MB BY TeriKasam mkv (Size: 181.95 MB)
  The Purge Election Year (2016) CAMRip x264 AAC 181MB...BY..TeriKasam.mkv 181.95 MB

Description

The Purge Election Year (2016) CAMRip x264 AAC 181MB BY TeriKasam mkv
image






General
Unique ID : 224868883526370287246073713055654298173 (0xA92C2BF03C02687C8A6F6A93C30D423D)
Complete name : E:\The Purge Election Year (2016) CAMRip x264 AAC 181MB...BY..TeriKasam.mkv
Format : Matroska
Format version : Version 4 / Version 2
File size : 182 MiB
Duration : 1h 33mn
Overall bit rate : 272 Kbps
Encoded date : UTC 2016-07-11 23:29:23
Writing application : mkvmerge v9.2.0 ('Photograph') 32bit
Writing library : libebml v1.3.3 + libmatroska v1.4.4

Video
ID : 1
Format : AVC
Format/Info : Advanced Video Codec
Format profile : [email protected]
Format settings, CABAC : Yes
Format settings, ReFrames : 4 frames
Codec ID : V_MPEG4/ISO/AVC
Duration : 1h 33mn
Bit rate : 173 Kbps
Width : 576 pixels
Height : 304 pixels
Display aspect ratio : 1.905
Original display aspect ratio : 1.904
Frame rate mode : Constant
Frame rate : 25.000 fps
Color space : YUV
Chroma subsampling : 4:2:0
Bit depth : 8 bits
Scan type : Progressive
Bits/(Pixel*Frame) : 0.040
Stream size : 116 MiB (64%)
Writing library : x264 core 140 r2 1ca7bb9
Encoding settings : cabac=1 / ref=1 / deblock=1:0:0 / analyse=0x3:0x113 / me=hex / subme=2 / psy=1 / psy_rd=1.00:0.00 / mixed_ref=0 / me_range=16 / chroma_me=1 / trellis=0 / 8x8dct=1 / cqm=0 / deadzone=21,11 / fast_pskip=1 / chroma_qp_offset=0 / threads=12 / lookahead_threads=2 / sliced_threads=0 / nr=0 / decimate=1 / interlaced=0 / bluray_compat=0 / constrained_intra=0 / bframes=3 / b_pyramid=2 / b_adapt=1 / b_bias=0 / direct=1 / weightb=1 / open_gop=0 / weightp=1 / keyint=50 / keyint_min=5 / scenecut=40 / intra_refresh=0 / rc_lookahead=10 / rc=crf / mbtree=1 / crf=25.0 / qcomp=0.60 / qpmin=0 / qpmax=69 / qpstep=4 / ip_ratio=1.40 / aq=1:1.00
Default : Yes
Forced : No

Audio
ID : 2
Format : AAC
Format/Info : Advanced Audio Codec
Format profile : LC
Codec ID : A_AAC
Duration : 1h 33mn
Bit rate : 96.0 Kbps
Channel(s) : 2 channels
Channel positions : Front: L R
Sampling rate : 44.1 KHz
Frame rate : 43.066 fps (1024 spf)
Compression mode : Lossy
Delay relative to video : 44ms
Stream size : 64.3 MiB (35%)
Default : Yes
Forced : No



SCREENSHOTS
Click On Image

image image image image image image image image image image image

Related Torrents

torrent name size files age seed leech

Sharing Widget


Download torrent
181.95 MB
seeders:32
leechers:3
The Purge Election Year (2016) CAMRip x264 AAC 181MB BY TeriKasam mkv



To share this torrent use the code below and insert it into comments, status messages, forum posts or your signature.

Torrent: The Purge Election Year (201...4 AAC 181MB BY TeriKasam mkv

Trackers

tracker name
udp://9.rarbg.me:2710/announce
udp://glotorrents.pw:6969/announce
udp://tracker.openbittorrent.com:80/announce
udp://tracker.coppersurfer.tk:6969/announce
udp://open.demonii.com:1337/announce
udp://tracker.leechers-paradise.org:6969/announce
udp://p4p.arenabg.com:1337/announce
udp://tracker.pubt.net:2710/announce
udp://tracker.opentrackr.org:1337/announce
µTorrent compatible trackers list

Locations

name
KickassTorrents
Torrent hash: 050407B4B201B75B71034B84183EDF0F3F3E515D

All Comments

audio
0/10
video
0/10
please, leave only comments related to that torrent
Sign In


User Opinions

Alex_Kid57.46K, jay06056656
Report a bug Open chat